Auteur Sujet: Installation clipbucket sur offre premium  (Lu 1261 fois)

0 Membres et 1 Invité sur ce sujet

Hors ligne Matheo

  • Débutant
  • *
  • Messages: 1
Installation clipbucket sur offre premium
« le: 26 Juillet 2013 à 10:38:22 »
Bonjour,
J'ai une offre premium qui me permet normalement d'installer le cms clipbucket et faire ainsi des conversions videos... Mais quand j'uppload une video la conversion ne se fait pas correctement. j'ai l'impression que ca provient de l'encodage, mais j'ai testé avec different codec sans résultat :/

J'avoue que la je coince un peu !
Est ce que quelqu'un a déjà installer ce CMS sur phpnet et y a t-il des configurations spécifiques a indiquer ?

Voici le détail du log d'une conversion video...

Merci de votre aide


Conversion Details

FFmpeg version SVN-r0.5.10-4:0.5.10-1, Copyright (c) 2000-2009 Fabrice Bellard, et al.
configuration: --extra-version=4:0.5.10-1 --prefix=/usr --enable-avfilter --enable-avfilter-lavf --enable-vdpau --enable-bzlib --enable-libdirac --enable-libgsm --enable-libopenjpeg --enable-libschroedinger --enable-libspeex --enable-libtheora --enable-libvorbis --enable-pthreads --enable-zlib --disable-stripping --disable-vhook --enable-runtime-cpudetect --enable-gpl --enable-postproc --enable-swscale --enable-x11grab --enable-libfaad --enable-libdc1394 --enable-shared --disable-static
libavutil 49.15. 0 / 49.15. 0
libavcodec 52.20. 1 / 52.20. 1
libavformat 52.31. 0 / 52.31. 0
libavdevice 52. 1. 0 / 52. 1. 0
libavfilter 0. 4. 0 / 0. 4. 0
libswscale 0. 7. 1 / 0. 7. 1
libpostproc 51. 2. 0 / 51. 2. 0
built on Feb 16 2013 09:22:58, gcc: 4.4.5
[flv @ 0x1d68480]invalid stream

Seems stream 1 codec frame rate differs from container frame rate: inf (1/0) -> 29.97 (30000/1001)
Input #0, flv, from '/home/www/video/files/conversion_queue/13747428207af12.flv':
Duration: 00:02:50.60, start: 0.000000, bitrate: 32 kb/s
Stream #0.0: Audio: mp3, 11025 Hz, stereo, s16, 32 kb/s
Stream #0.1: Video: vp6f, yuv420p, 320x240, 29.97 tbr, 1k tbn
Unknown encoder 'libx264'
Failed to stat file /home/www/video/files/videos/13747428207af12.flv!
Failed to stat file /home/www/video/files/videos/13747428207af12.flv!


Unknown file details - Unable to get output video details using FFMPEG